The Lion King [1994] 3D H-SBS 1080p [Ing-Lat]




TITULO ORIGINAL: The Lion King
ANO: 1994
DURACION: 85 min.
PAIS: USA
DIRECTOR: Rob Minkoff, Roger Allers
GUION: Irene Mecchi, Jonathan Roberts, Linda Woolverton
REPARTO: Animation
PRODUCTORA: Walt Disney Pictures
GENERO: Animacion. Drama. Aventuras. Comedia. Musical. Infantil | Africa
Sinopsis: La sabana africana es el escenario en el que tienen lugar las aventuras de Simba, un pequeno leon que es el heredero del trono. Sin embargo, se ve forzado a exiliarse al ser injustamente acusado de la muerte de su padre. Durante su destierro, hara buenas amistades y, finalmente, regresara para recuperar lo que legitimamente le corresponde.
http://www.imdb.com/title/tt0110357/
Trailer
Cita:

https://www.youtube.com/watch?v=VUxJEGc8GR8




Cita:


General
Format : Matroska
Format version : Version 2
File size : 7.94 GiB
Duration : 1h 28mn
Overall bit rate : 12.8 Mbps
Encoded date : UTC 2012-11-13 00:51:54
Writing application : mkvmerge v5.7.0 (The Whirlwind) built on Jul 8 2012 20:08:51
Writing library : libebml v1.2.3 + libmatroska v1.3.0
Video
ID : 1
Format : AVC
Format/Info : Advanced Video Codec
Format profile : High@L4.1
Format settings, CABAC : Yes
Format settings, ReFrames : 2 frames
Codec ID : V_MPEG4/ISO/AVC
Duration : 1h 28mn
Bit rate : 9 742 Kbps
Width : 1 920 pixels
Height : 1 080 pixels
Display aspect ratio : 16:9
Frame rate : 23.976 fps
Color space : YUV
Chroma subsampling : 4:2:0
Bit depth : 8 bits
Scan type : Progressive
Bits/(Pixel*Frame) : 0.196
Stream size : 6.05 GiB (76%)
Writing library : x264 core
Language : English
Default : Yes
Forced : No
Color primaries : BT.709-5, BT.1361, IEC 61966-2-4, SMPTE RP177
Transfer characteristics : BT.709-5, BT.1361
Matrix coefficients : BT.709-5, BT.1361, IEC 61966-2-4 709, SMPTE RP177
Audio #1
ID : 2
Format : AC-3
Format/Info : Audio Coding 3
Mode extension : CM (complete main)
Codec ID : A_AC3
Duration : 1h 28mn
Bit rate mode : Constant
Bit rate : 640 Kbps
Channel(s) : 6 channels
Channel positions : Front: L C R, Side: L R, LFE
Sampling rate : 48.0 KHz
Bit depth : 16 bits
Compression mode : Lossy
Delay relative to video : 20s 500ms
Stream size : 407 MiB (5%)
Title : AC3 5.1
Language : Spanish
Default : Yes
Forced : No
Audio #2
ID : 3
Format : AC-3
Format/Info : Audio Coding 3
Mode extension : CM (complete main)
Codec ID : A_AC3
Duration : 1h 28mn
Bit rate mode : Constant
Bit rate : 640 Kbps
Channel(s) : 6 channels
Channel positions : Front: L C R, Side: L R, LFE
Sampling rate : 48.0 KHz
Bit depth : 16 bits
Compression mode : Lossy
Stream size : 407 MiB (5%)
Title : AC3 5.1
Language : English
Default : No
Forced : No
Audio #3
ID : 4
Format : DTS
Format/Info : Digital Theater Systems
Codec ID : A_DTS
Duration : 1h 28mn
Bit rate mode : Constant
Bit rate : 1 510 Kbps
Channel(s) : 6 channels
Channel positions : Front: L C R, Side: L R, LFE
Sampling rate : 48.0 KHz
Bit depth : 24 bits
Compression mode : Lossy
Stream size : 959 MiB (12%)
Title : DTS 5.1
Language : English
Default : No
Forced : No
Text
ID : 5
Format : UTF-8
Codec ID : S_TEXT/UTF8
Codec ID/Info : UTF-8 Plain Text
Language : Spanish
Default : No
Forced : No









Buy Premium Account To Get High Speed Download
Para poder ver los links necesitas estar Registrado . O.. ya tienes cuenta? Logueate!

Opciones
Estadísticas
Creado 11.10.2017 a las 22:21 hs
Categoría Peliculas HDrip 1080p-720p
  • 0
    Medallas
  • 0
    Favoritos
  • 18
    Visitas
  • 0
    Puntos
  • 0
    Seguidores
Comentarios
0
Cargando comentarios espera un momento...
No tienes permisos para comentar.

Para poder comentar necesitas estar Registrado. O.. ya tienes usuario? Logueate!
Autor del post
Ver perfil de campitos campitos
Hombre New Full User  Mensaje
65 417 0
Medallas
No tiene medallas
Tags
Posts relacionados