Percy Jackson Sea of Monsters [2013][3D 1080p][Ing-Lat]




Titulo original Percy Jackson: Sea of Monsters
Ano 2013
Duracion 106 min.
Pais Estados Unidos
Director Thor Freudenthal
Guion Scott Alexander, Larry Karaszewski, Marc Guggenheim (Novela: Rick Riordan)
Musica Andrew Lockington
Fotografia Shelly Johnson
Reparto Logan Lerman, Alexandra Daddario, Douglas Smith, Daniel Cudmore, Stanley Tucci, Nathan Fillion, Jake Abel, Missi Pyle, Brandon T. Jackson, Anthony Head, Leven Rambin, Robert Maillet, Derek Mears, Yvette Nicole Brown, Grey Damon, Mary Birdsong
Productora Fox 2000 Pictures / Trireme Productions
Genero Fantastico. Aventuras | Mitologia. Secuela
Sinopsis Para salvar su mundo, Percy y sus amigos deben encontrar el Vellocino de Oro. Viviran asi una autentica odisea surcando las aguas del Mar de los Monstruos (que los hombres llaman el Triangulo de las Bermudas), pues tendran que enfrentarse a terribles criaturas, a un ejercito de zombies y al mismisimo Demonio.
http://www.imdb.com/title/tt1854564/
Trailer
Cita:

https://youtu.be/MKekiwM7WJI




Cita:


General
Format : Matroska
Format version : Version 3 / Version 2
File size : 10.3 GiB
Duration : 1h 46mn
Overall bit rate : 13.9 Mbps
Encoded date : UTC 2013-11-29 02:28:53
Writing application : mkvmerge v5.7.0 (The Whirlwind) built on Jul 8 2012 20:08:51
Writing library : libebml v1.2.3 + libmatroska v1.3.0
Video
ID : 1
Format : AVC
Format/Info : Advanced Video Codec
Format profile : High@L4.1
MultiView_Count : 2
MultiView_Layout : Side by Side (left eye first)
Format settings, CABAC : Yes
Format settings, ReFrames : 4 frames
Codec ID : V_MPEG4/ISO/AVC
Duration : 1h 46mn
Bit rate : 11.0 Mbps
Width : 1 920 pixels
Height : 1 080 pixels
Display aspect ratio : 16:9
Frame rate mode : Constant
Frame rate : 23.976 fps
Color space : YUV
Chroma subsampling : 4:2:0
Bit depth : 8 bits
Scan type : Progressive
Bits/(Pixel*Frame) : 0.222
Stream size : 8.18 GiB (79%)
Language : English
Default : Yes
Forced : No
Audio #1
ID : 2
Format : AC-3
Format/Info : Audio Coding 3
Mode extension : CM (complete main)
Format settings, Endianness : Big
Codec ID : A_AC3
Duration : 1h 46mn
Bit rate mode : Constant
Bit rate : 448 Kbps
Channel(s) : 6 channels
Channel positions : Front: L C R, Side: L R, LFE
Sampling rate : 48.0 KHz
Bit depth : 16 bits
Compression mode : Lossy
Delay relative to video : 1s 0ms
Stream size : 340 MiB (3%)
Title : AC3 5.1
Language : Spanish
Default : Yes
Forced : No
Audio #2
ID : 3
Format : AC-3
Format/Info : Audio Coding 3
Mode extension : CM (complete main)
Format settings, Endianness : Big
Codec ID : A_AC3
Duration : 1h 46mn
Bit rate mode : Constant
Bit rate : 640 Kbps
Channel(s) : 6 channels
Channel positions : Front: L C R, Side: L R, LFE
Sampling rate : 48.0 KHz
Bit depth : 16 bits
Compression mode : Lossy
Stream size : 486 MiB (5%)
Title : AC3 5.1
Language : English
Default : No
Forced : No
Audio #3
ID : 4
Format : DTS
Format/Info : Digital Theater Systems
Format profile : ES
Mode : 16
Format settings, Endianness : Big
Codec ID : A_DTS
Duration : 1h 46mn
Bit rate mode : Constant
Bit rate : 1 509 Kbps
Channel(s) : 6 channels
Channel positions : Front: L C R, Side: L R, LFE
Sampling rate : 48.0 KHz
Bit depth : 24 bits
Compression mode : Lossy
Stream size : 1.12 GiB (11%)
Title : DTS 5.1
Language : English
Default : No
Forced : No
Text
ID : 5
Format : VobSub
Muxing mode : zlib
Codec ID : S_VOBSUB
Codec ID/Info : The same subtitle format used on DVDs
Language : Spanish
Default : No
Forced : No









Buy Premium Account To Get High Speed Download
Para poder ver los links necesitas estar Registrado . O.. ya tienes cuenta? Logueate!

Opciones
Estadísticas
Creado 11.10.2017 a las 14:18 hs
Categoría Peliculas HDrip 1080p-720p
  • 0
    Medallas
  • 0
    Favoritos
  • 0
    Visitas
  • 0
    Puntos
  • 0
    Seguidores
Comentarios
0
Cargando comentarios espera un momento...
No tienes permisos para comentar.

Para poder comentar necesitas estar Registrado. O.. ya tienes usuario? Logueate!
Autor del post
Ver perfil de campitos campitos
Hombre New Full User  Mensaje
65 298 0
Medallas
No tiene medallas
Tags
Posts relacionados