Need for Speed [2014] 3D H-SBS 1080p [Ing-Lat]




Titulo original: Need For Speed
Titulo en Latino: Need for Speed - La pelicula
Ano: 2014
Duracion: 130 min.
Pais: Estados Unidos
Director: Scott Waugh
http://www.imdb.com/title/tt2369135
Guion: George Gatins, John Gatins, George Nolfi
Musica: Nathan Furst
Fotografia: Shane Hurlbut
Reparto: Aaron Paul, Dominic Cooper, Imogen Poots, Michael Keaton, Scott Mescudi, Dakota Johnson, Rami Malek, Nick Chinlund, Ramon Rodriguez, Kid Cudi, Han Soto, Carmela Zumbado, Harrison Gilbertson
Productora: Electronic Arts / DreamWorks SKG / Reliance Entertainment / Bandito Brothers
Genero: Accion | Coches / Automovilismo. Venganza. Videojuego. 3D
SINOPSIS: Cuenta la historia de un piloto de carreras clandestinas que posee su propio garaje para modificar sus coches y hacerlos mas rapidos. Sin embargo, es enviado a prision cuando su mejor amigo es asesinado en una de estas competiciones, y buscara' vengarse cuando quede en libertad. Adaptacion al cine de la saga de videojuegos homonima.
Cita:

https://www.youtube.com/watch?v=ThdX4ySLfmc




Cita:


General
Complete name : Need for Speed (2014) 3D H-SBS 1080p BDRip Dual.mkv
Format : Matroska
Format version : Version 4 / Version 2
File size : 13.6 GiB
Duration : 2h 10mn
Overall bit rate : 14.9 Mbps
Encoded date : UTC 2014-07-19 21:08:06
Writing application : mkvmerge v6.8.0 ('Theme for Great Cities') 64bit built on Mar 2 2014 21:34:26
Writing library : libebml v1.3.0 + libmatroska v1.4.1
Video
ID : 1
Format : AVC
Format/Info : Advanced Video Codec
Format profile : High@L4.1
Format settings, CABAC : Yes
Format settings, ReFrames : 4 frames
Codec ID : V_MPEG4/ISO/AVC
Duration : 2h 10mn
Bit rate : 11.8 Mbps
Nominal bit rate : 12.5 Mbps
Width : 1 920 pixels
Height : 1 080 pixels
Display aspect ratio : 16:9
Frame rate mode : Constant
Frame rate : 23.976 fps
Color space : YUV
Chroma subsampling : 4:2:0
Bit depth : 8 bits
Scan type : Progressive
Bits/(Pixel*Frame) : 0.237
Stream size : 10.8 GiB (79%)
Writing library : x264 core 142 r2431 ac76440
Language : English
Default : Yes
Forced : No
Color primaries : BT.709
Transfer characteristics : BT.709
Matrix coefficients : BT.709
Audio #1
ID : 2
Format : AC-3
Format/Info : Audio Coding 3
Mode extension : CM (complete main)
Format settings, Endianness : Big
Codec ID : A_AC3
Duration : 2h 10mn
Bit rate mode : Constant
Bit rate : 640 Kbps
Channel(s) : 6 channels
Channel positions : Front: L C R, Side: L R, LFE
Sampling rate : 48.0 KHz
Bit depth : 16 bits
Compression mode : Lossy
Delay relative to video : -83ms
Stream size : 599 MiB (4%)
Title : AC3 5.1
Language : Spanish
Default : Yes
Forced : No
Audio #2
ID : 3
Format : AC-3
Format/Info : Audio Coding 3
Mode extension : CM (complete main)
Format settings, Endianness : Big
Codec ID : A_AC3
Duration : 2h 10mn
Bit rate mode : Constant
Bit rate : 640 Kbps
Channel(s) : 6 channels
Channel positions : Front: L C R, Side: L R, LFE
Sampling rate : 48.0 KHz
Bit depth : 16 bits
Compression mode : Lossy
Delay relative to video : -83ms
Stream size : 599 MiB (4%)
Title : AC3 5.1
Language : English
Default : No
Forced : No
Audio #3
ID: 4
Format: DTS
Format/Info: Digital Theater Systems
Mode: 16
Format settings, Endianness: Big
Codec ID: A_DTS
Duration: 2h 10mn
Bit rate mode: Constant
Bit rate: 1 509 Kbps
Channel(s): 6 channels
Channel positions: Front: L C R, Side: L R, LFE
Sampling rate: 48.0 KHz
Bit depth: 24 bits
Compression mode: Lossy
Stream size: 1.38 GiB (10%)
Title: DTS 5.1
Language: English
Default: No
Forced: No
Text #1
ID: 5
Format: UTF-8
Codec ID: S_TEXT/UTF8
Codec ID/Info: UTF-8 Plain Text
Language: Spanish
Default: No
Forced: No
Text #2
ID: 6
Format: UTF-8
Codec ID: S_TEXT/UTF8
Codec ID/Info UTF-8 Plain Text
Language: Spanish
Default: Yes
Forced: No










Buy Premium Account To Get High Speed Download
Para poder ver los links necesitas estar Registrado . O.. ya tienes cuenta? Logueate!

Opciones
Estadísticas
Creado 11.10.2017 a las 13:00 hs
Categoría Peliculas HDrip 1080p-720p
  • 0
    Medallas
  • 0
    Favoritos
  • 12
    Visitas
  • 0
    Puntos
  • 0
    Seguidores
Comentarios
0
Cargando comentarios espera un momento...
No tienes permisos para comentar.

Para poder comentar necesitas estar Registrado. O.. ya tienes usuario? Logueate!
Autor del post
Ver perfil de campitos campitos
Hombre New Full User  Mensaje
65 417 0
Medallas
No tiene medallas
Tags
Posts relacionados