Frozen [2013] 3D H-SBS 1080p [Ing-Lat]




TITULO ORIGINAL: Frozen
ANO: 2013
DURACION: 108 min.
PAIS: USA
DIRECTOR: Chris Buck, Jennifer Lee
GUION: Jennifer Lee (Novela: Hans Christian Andersen)
REPARTO: Animation
PRODUCTORA: Walt Disney Animation Studios / Walt Disney Pictures
GENERO: Animacion. Fantastico. Musical. Aventuras. Comedia. Infantil | Cuentos. 3-D
http://www.imdb.com/title/tt2294629/
Sinopsis: Cuando una profecia condena a un reino a vivir un invierno eterno, la joven Anna, el temerario montanero Kristoff y el reno Sven emprenden un viaje epico en busca de Elsa, hermana de Anna y Reina de las Nieves, para poner fin al gelido hechizo. Adaptacion libre del cuento "La reina de las nieves".
Trailer
Cita:

https://www.youtube.com/watch?v=84ieTKsn1Qk&feature=youtu.be




Cita:


General
Format : Matroska
Format version : Version 3 / Version 2
File size : 8.98 GiB
Duration : 1h 42mn
Overall bit rate: 12.6 Mbps
Encoded date: UTC 2014-03-15 23:27:54
Writing application: mkvmerge v5.7.0 (The Whirlwind) built on Jul 8 2012 20:08:51
Writing library : libebml v1.2.3 + libmatroska v1.3.0
Video
ID: 1
Format : AVC
Format/Info : Advanced Video Codec
Format profile : High@L4.1
MultiView_Count : 2
MultiView_Layout : Side by Side (left eye first)
Format settings, CABAC : Yes
Format settings, ReFrames : 2 frames
Format settings, GOP : M=3, N=24
Muxing mode : Header stripping
Codec ID: V_MPEG4/ISO/AVC
Duration : 1h 42mn
Bit rate: 9 532 Kbps
Width : 1 920 pixels
Height : 1 080 pixels
Display aspect ratio : 16:9
Frame rate mode: Constant
Frame rate: 23.976 fps
Color space : YUV
Chroma subsampling : 4:2:0
Bit depth: 8 bits
Scan type Progressive
Bits/(Pixel*Frame) : 0.192
Stream size: 6.81 GiB (76%)
Writing library : x264 core
Language : English
Default : Yes
Forced : No
Color primaries: BT.709
Transfer characteristics: BT.709
Matrix coefficients : BT.709
Audio #1
ID: 2
Format : AC-3
Format/Info: Audio Coding 3
Mode extension : CM (complete main)
Format settings, Endianness: Big
Muxing mode : Header stripping
Codec ID : A_AC3
Duration : 1h 42mn
Bit rate mode : Constant
Bit rate : 640 Kbps
Channel(s) : 6 channels
Channel positions : Front: L C R, Side: L R, LFE
Sampling rate : 48.0 KHz
Bit depth : 16 bits
Compression mode : Lossy
Stream size : 468 MiB (5%)
Title : AC3
Language : Spanish
Default : Yes
Forced : No
Audio #2
ID : 3
Format : AC-3
Format/Info : Audio Coding 3
Mode extension : CM (complete main)
Format settings, Endianness : Big
Muxing mode : Header stripping
Codec ID : A_AC3
Duration : 1h 42mn
Bit rate mode : Constant
Bit rate : 640 Kbps
Channel(s) : 6 channels
Channel positions : Front: L C R, Side: L R, LFE
Sampling rate : 48.0 KHz
Bit depth : 16 bits
Compression mode : Lossy
Stream size : 468 MiB (5%)
Title : AC3
Language : English
Default : No
Forced : No
Audio #3
ID : 4
Format : DTS
Format/Info : Digital Theater Systems
Mode : 16
Format settings, Endianness : Big
Muxing mode : Header stripping
Codec ID : A_DTS
Duration : 1h 42mn
Bit rate mode : Constant
Bit rate : 1 509 Kbps
Channel(s) : 6 channels
Channel positions : Front: L C R, Side: L R, LFE
Sampling rate : 48.0 KHz
Bit depth : 24 bits
Compression mode : Lossy
Stream size : 1.08 GiB (12%)
Title : DTS
Language : English
Default : No
Forced : No
Text
ID : 5
Format : VobSub
Muxing mode : zlib
Codec ID : S_VOBSUB
Codec ID/Info : The same subtitle format used on DVDs
Language : Spanish
Default : No
Forced : No







Buy Premium Account To Get High Speed Download
Para poder ver los links necesitas estar Registrado . O.. ya tienes cuenta? Logueate!

Opciones
Estadísticas
Creado 10.10.2017 a las 16:44 hs
Categoría Peliculas HDrip 1080p-720p
  • 0
    Medallas
  • 0
    Favoritos
  • 0
    Visitas
  • 0
    Puntos
  • 0
    Seguidores
Comentarios
0
Cargando comentarios espera un momento...
No tienes permisos para comentar.

Para poder comentar necesitas estar Registrado. O.. ya tienes usuario? Logueate!
Autor del post
Ver perfil de campitos campitos
Hombre New Full User  Mensaje
65 298 0
Medallas
No tiene medallas
Tags
Posts relacionados