Ant-Man [2015] 3D H-SBS 1080p [Ing-Lat][Ciencia Ficcion]




Titulo original: Ant-Man
Ano: 2015
Duracion: 117 min.
Pais: Estados Unidos
Director: Peyton Reed
Guion: Edgar Wright, Joe Cornish, Adam McKay, Paul Rudd (Comic: Stan Lee, Jack Kirby, Larry Lieber)
Musica: Christophe Beck
Fotografia: Russell Carpenter
Reparto: Paul Rudd, Michael Douglas, Evangeline Lilly, Corey Stoll, Bobby Cannavale, Matt Gerald, Anthony Mackie, Judy Greer, Abby Ryder Fortson, Michael Pena, Hayley Atwell, David Dastmalchian, John Slattery, Wood Harris, T.I., Martin Donovan, Rod Hallett, Lyndsi LaRose, Onira Tares, Hayley Lovitt, Carol Anne Watts
Productora: Marvel Studios / Marvel Enterprises / Big Talk Productions
Genero: Ciencia ficcion. Fantastico. Accion. Comedia | Robos & Atracos. Insectos. Superheroes. Comic. Marvel Comics. 3-D
Sinopsis: Armado con la asombrosa capacidad de reducir su tamano a la dimensiones de un insecto, el estafador Scott Lang (Paul Rudd) debe sacar a relucir al heroe que lleva dentro y ayudar a su mentor, el doctor Hank Pym (Michael Douglas), a proteger de una nueva generacion de amenazas el secreto que se esconde tras el traje de Ant-Man, con un casco que le permite comunicarse con las hormigas. A pesar de los obstaculos aparentemente insuperables que les acechan, Pym y Lang deben planear y llevar a cabo un atraco para intentar salvar al mundo
http://www.imdb.com/title/tt0478970/
Trailer
Cita:

https://youtu.be/mBv4FSyg-P4




Cita:


General
Format : Matroska
Format version : Version 4 / Version 2
File size : 9.58 GiB
Duration : 1h 57mn
Overall bit rate : 11.7 Mbps
Encoded date : UTC 2015-11-24 15:49:08
Writing application : mkvmerge v7.1.0 (Good Love) 64bit built on Jul 27 2014 13:06:55
Writing library : libebml v1.3.0 + libmatroska v1.4.1
Video
ID : 1
Format : AVC
Format/Info : Advanced Video Codec
Format profile : High@L4.1
Format settings, CABAC : Yes
Format settings, ReFrames : 4 frames
Codec ID : V_MPEG4/ISO/AVC
Duration : 1h 57mn
Bit rate : 9 181 Kbps
Width : 1 920 pixels
Height : 1 040 pixels
Display aspect ratio : 1.85:1
Frame rate mode : Constant
Frame rate : 23.976 fps
Color space : YUV
Chroma subsampling : 4:2:0
Bit depth : 8 bits
Scan type : Progressive
Bits/(Pixel*Frame) : 0.192
Stream size : 7.32 GiB (76%)
Writing library : x264 core 148 r2638 7599210
Language : English
Default : Yes
Forced : No
Audio #1
ID : 2
Format : AC-3
Format/Info : Audio Coding 3
Mode extension : CM (complete main)
Format settings, Endianness : Big
Codec ID : A_AC3
Duration : 1h 57mn
Bit rate mode : Constant
Bit rate : 384 Kbps
Channel(s) : 6 channels
Channel positions : Front: L C R, Side: L R, LFE
Sampling rate : 48.0 KHz
Bit depth : 16 bits
Compression mode : Lossy
Delay relative to video : 1s 0ms
Stream size : 322 MiB (3%)
Title : AC3 5.1 DVD
Language : Spanish
Default : Yes
Forced : No
Audio #2
ID : 3
Format : AC-3
Format/Info : Audio Coding 3
Mode extension : CM (complete main)
Format settings, Endianness : Big
Codec ID : A_AC3
Duration : 1h 57mn
Bit rate mode : Constant
Bit rate : 640 Kbps
Channel(s) : 6 channels
Channel positions : Front: L C R, Side: L R, LFE
Sampling rate : 48.0 KHz
Bit depth : 16 bits
Compression mode : Lossy
Stream size : 536 MiB (5%)
Title : AC3 5.1
Language : English
Default : No
Forced : No
Audio #3
ID : 4
Format : DTS
Format/Info : Digital Theater Systems
Mode : 16
Format settings, Endianness : Big
Codec ID : A_DTS
Duration : 1h 57mn
Bit rate mode : Constant
Bit rate : 1 509 Kbps
Channel(s) : 6 channels
Channel positions : Front: L C R, Side: L R, LFE
Sampling rate : 48.0 KHz
Bit depth : 24 bits
Compression mode : Lossy
Stream size : 1.23 GiB (13%)
Title : DTS 5.1
Language : English
Default : No
Forced : No
Text #1
ID : 5
Format : UTF-8
Codec ID : S_TEXT/UTF8
Codec ID/Info : UTF-8 Plain Text
Title : Forz
Language : Spanish
Default : Yes
Forced : No
Text #2
ID : 6
Format : UTF-8
Codec ID : S_TEXT/UTF8
Codec ID/Info : UTF-8 Plain Text
Title : Complet
Language : Spanish
Default : No
Forced : No









Buy Premium Account To Get High Speed Download
Para poder ver los links necesitas estar Registrado . O.. ya tienes cuenta? Logueate!

Opciones
Estadísticas
Creado 10.10.2017 a las 13:15 hs
Categoría Peliculas HDrip 1080p-720p
  • 0
    Medallas
  • 0
    Favoritos
  • 0
    Visitas
  • 0
    Puntos
  • 0
    Seguidores
Comentarios
0
Cargando comentarios espera un momento...
No tienes permisos para comentar.

Para poder comentar necesitas estar Registrado. O.. ya tienes usuario? Logueate!
Autor del post
Ver perfil de campitos campitos
Hombre New Full User  Mensaje
65 298 0
Medallas
No tiene medallas
Tags
Posts relacionados