Wreck-It Ralph (2012) 3D H-SBS 1080p (Ing-Lat)




TITULO ORIGINAL: Wreck-It Ralph
ANO: 2012
DURACION: 101 min.
PAIS: USA
DIRECTOR: Rich Moore
GUION: Phil Johnston
REPARTO: Animation
PRODUCTORA: Walt Disney Animation Studios
GENERO: Animacion. Fantastico. Comedia | Videojuego. 3-D
http://www.imdb.es/title/tt1772341/
PREMIOS: 2012: Oscar: Nominada a Mejor pelicula de animacion
2012: 5 Premios Annie, incluyendo Mejor pelicula. 10 nominaciones
2012: Critics Choice Awards: Mejor pelicula de animacion
2012: Globos de Oro: Nominada a Mejor pelicula de animacion
2012: Satellite Awards: Nominado a Mejor largometraje de animacion
2012: National Board of Review (NBR): Mejor largometraje de animacion
2012: Producers Guild of America (PGA): Mejor pelicula de animacion
Sinopsis: Durante decadas, Ralph (voz original en ingles de John C. Reilly) ha vivido a la sombra de Repara-Felix Jr., el chico bueno de su videojuego. Cansado de ser el malo de la historia, Ralph decide tomar el asunto por sus propias y gigantes manos, y se lanza en un viaje a traves de los distintos mundos y generaciones de videojuegos para demostrarle al mundo que el tambien puede ser un heroe.
Trailer
Cita:

https://www.youtube.com/watch?v=vf4r5q8-aWo&feature=youtu.be




Cita:


General
Format: Matroska
Format version: Version 2
File size: 11.8 GiB
Duration: 1h 41mn
Overall bit rate: 16.7 Mbps
Encoded date: UTC 2013-02-17 20:09:46
Writing application: mkvmerge v5.7.0 ('The Whirlwind') built on Jul 8 2012 20:08:51
Writing library: libebml v1.2.3 + libmatroska v1.3.0
Video
ID: 1
Format: AVC
Format/Info : Advanced Video Codec
Format profile : High@L4.1
Format settings, CABAC : Yes
Format settings, ReFrames : 2 frames
Codec ID : V_MPEG4/ISO/AVC
Duration : 1h 41mn
Bit rate : 13.6 Mbps
Width : 1 920 pixels
Height : 1 080 pixels
Display aspect ratio : 16:9
Frame rate mode : Constant
Frame rate : 23.976 fps
Color space : YUV
Chroma subsampling : 4:2:0
Bit depth : 8 bits
Scan type : Progressive
Bits/(Pixel*Frame) : 0.273
Stream size : 9.61 GiB (81%)
Writing library : x264 core
Language : English
Default : Yes
Forced : No
Color primaries : BT.709
Transfer characteristics : BT.709
Matrix coefficients : BT.709
Audio #1
ID : 2
Format : AC-3
Format/Info : Audio Coding 3
Mode extension : CM (complete main)
Format settings, Endianness : Big
Codec ID : A_AC3
Duration : 1h 41mn
Bit rate mode : Constant
Bit rate : 640 Kbps
Channel(s) : 6 channels
Channel positions : Front: L C R, Side: L R, LFE
Sampling rate : 48.0 KHz
Bit depth : 16 bits
Compression mode : Lossy
Stream size : 463 MiB (4%)
Title : AC3 5.1
Language : Spanish
Default : Yes
Forced : No
Audio #2
ID : 3
Format : AC-3
Format/Info : Audio Coding 3
Mode extension : CM (complete main)
Format settings, Endianness : Big
Codec ID : A_AC3
Duration : 1h 41mn
Bit rate mode : Constant
Bit rate : 640 Kbps
Channel(s) : 6 channels
Channel positions : Front: L C R, Side: L R, LFE
Sampling rate : 48.0 KHz
Bit depth : 16 bits
Compression mode : Lossy
Stream size : 463 MiB (4%)
Title : AC3 5.1
Language : English
Default : No
Forced : No
Audio #3
ID : 4
Format : DTS
Format/Info : Digital Theater Systems
Mode : 16
Format settings, Endianness : Big
Codec ID : A_DTS
Duration : 1h 41mn
Bit rate mode : Constant
Bit rate : 1 509 Kbps
Channel(s) : 6 channels
Channel positions : Front: L C R, Side: L R, LFE
Sampling rate : 48.0 KHz
Bit depth : 24 bits
Compression mode : Lossy
Stream size : 1.07 GiB (9%)
Title : DTS 5.1
Language : English
Default : No
Forced : No
Text #1
ID : 5
Format : UTF-8
Codec ID : S_TEXT/UTF8
Codec ID/Info : UTF-8 Plain Text
Title : Forzados
Language : Spanish
Default : Yes
Forced : No
Text #2
ID : 6
Format : UTF-8
Codec ID : S_TEXT/UTF8
Codec ID/Info : UTF-8 Plain Text
Language : Spanish
Default : No
Forced : No
Text #3
ID : 7
Format : UTF-8
Codec ID : S_TEXT/UTF8
Codec ID/Info : UTF-8 Plain Text
Language : English
Default : No
Forced : No








Cita:


Para poder ver los links necesitas estar Registrado . O.. ya tienes cuenta? Logueate!

Para poder ver los links necesitas estar Registrado . O.. ya tienes cuenta? Logueate!

Para poder ver los links necesitas estar Registrado . O.. ya tienes cuenta? Logueate!

Para poder ver los links necesitas estar Registrado . O.. ya tienes cuenta? Logueate!

Para poder ver los links necesitas estar Registrado . O.. ya tienes cuenta? Logueate!

Para poder ver los links necesitas estar Registrado . O.. ya tienes cuenta? Logueate!

Para poder ver los links necesitas estar Registrado . O.. ya tienes cuenta? Logueate!

Para poder ver los links necesitas estar Registrado . O.. ya tienes cuenta? Logueate!

Para poder ver los links necesitas estar Registrado . O.. ya tienes cuenta? Logueate!

Para poder ver los links necesitas estar Registrado . O.. ya tienes cuenta? Logueate!

Para poder ver los links necesitas estar Registrado . O.. ya tienes cuenta? Logueate!

Para poder ver los links necesitas estar Registrado . O.. ya tienes cuenta? Logueate!

Para poder ver los links necesitas estar Registrado . O.. ya tienes cuenta? Logueate!

Para poder ver los links necesitas estar Registrado . O.. ya tienes cuenta? Logueate!

Para poder ver los links necesitas estar Registrado . O.. ya tienes cuenta? Logueate!

Para poder ver los links necesitas estar Registrado . O.. ya tienes cuenta? Logueate!

Para poder ver los links necesitas estar Registrado . O.. ya tienes cuenta? Logueate!

Para poder ver los links necesitas estar Registrado . O.. ya tienes cuenta? Logueate!

Para poder ver los links necesitas estar Registrado . O.. ya tienes cuenta? Logueate!

Para poder ver los links necesitas estar Registrado . O.. ya tienes cuenta? Logueate!

Para poder ver los links necesitas estar Registrado . O.. ya tienes cuenta? Logueate!

Para poder ver los links necesitas estar Registrado . O.. ya tienes cuenta? Logueate!

Para poder ver los links necesitas estar Registrado . O.. ya tienes cuenta? Logueate!

Para poder ver los links necesitas estar Registrado . O.. ya tienes cuenta? Logueate!

Para poder ver los links necesitas estar Registrado . O.. ya tienes cuenta? Logueate!

Para poder ver los links necesitas estar Registrado . O.. ya tienes cuenta? Logueate!

Para poder ver los links necesitas estar Registrado . O.. ya tienes cuenta? Logueate!

Para poder ver los links necesitas estar Registrado . O.. ya tienes cuenta? Logueate!

Para poder ver los links necesitas estar Registrado . O.. ya tienes cuenta? Logueate!

Para poder ver los links necesitas estar Registrado . O.. ya tienes cuenta? Logueate!

Para poder ver los links necesitas estar Registrado . O.. ya tienes cuenta? Logueate!

Para poder ver los links necesitas estar Registrado . O.. ya tienes cuenta? Logueate!

Para poder ver los links necesitas estar Registrado . O.. ya tienes cuenta? Logueate!

Para poder ver los links necesitas estar Registrado . O.. ya tienes cuenta? Logueate!

Para poder ver los links necesitas estar Registrado . O.. ya tienes cuenta? Logueate!

Para poder ver los links necesitas estar Registrado . O.. ya tienes cuenta? Logueate!

Para poder ver los links necesitas estar Registrado . O.. ya tienes cuenta? Logueate!

Para poder ver los links necesitas estar Registrado . O.. ya tienes cuenta? Logueate!

Para poder ver los links necesitas estar Registrado . O.. ya tienes cuenta? Logueate!

Para poder ver los links necesitas estar Registrado . O.. ya tienes cuenta? Logueate!

Para poder ver los links necesitas estar Registrado . O.. ya tienes cuenta? Logueate!

Para poder ver los links necesitas estar Registrado . O.. ya tienes cuenta? Logueate!

Para poder ver los links necesitas estar Registrado . O.. ya tienes cuenta? Logueate!

Para poder ver los links necesitas estar Registrado . O.. ya tienes cuenta? Logueate!

Para poder ver los links necesitas estar Registrado . O.. ya tienes cuenta? Logueate!

Para poder ver los links necesitas estar Registrado . O.. ya tienes cuenta? Logueate!

Para poder ver los links necesitas estar Registrado . O.. ya tienes cuenta? Logueate!

Para poder ver los links necesitas estar Registrado . O.. ya tienes cuenta? Logueate!


Opciones
Estadísticas
Creado 03.06.2017 a las 02:43 hs
Categoría Peliculas HDrip 1080p-720p
  • 0
    Medallas
  • 0
    Favoritos
  • 1
    Visitas
  • 5
    Puntos
  • 0
    Seguidores
Comentarios
0
Cargando comentarios espera un momento...
No tienes permisos para comentar.

Para poder comentar necesitas estar Registrado. O.. ya tienes usuario? Logueate!
Autor del post
Ver perfil de campitos campitos
Hombre Novato  Mensaje
55 63 0
Medallas
No tiene medallas
Tags
Posts relacionados